Author Topic: How to set MB to reads .cue file instead .flac tag in case when .flac is tagged?  (Read 2094 times)

brx

  • Jr. Member
  • **
  • Posts: 47
Hi guys! :)

Maybe not the best title, but I really tried to introduce you with the problem in the best way I can in this topic...

I have a small problem, but I can't solve it, so I need your help! :)

Here are pics for better understanding...

1) http://imageshack.com/a/img208/5477/xwdf.jpg
    As you can guess, the problem is with ALBUM tag of .flac file.

2) http://imageshack.com/a/img703/5240/h19h.jpg
   This is what I get when I drag 'n' drop .cue file into MB.   

3) .cue content
REM GENRE "New Age"
REM DATE 2007
REM DISCID 3F12AE04
REM COMMENT "ExactAudioCopy v0.99pb4"
PERFORMER "Klaus Schulze"
TITLE "Body Love 2"
FILE "Klaus Schulze - Body Love 2.wav" WAVE
  TRACK 01 AUDIO
    TITLE "Nowhere - Now here"
    PERFORMER "Klaus Schulze"
    INDEX 01 00:00:00
  TRACK 02 AUDIO
    TITLE "Stardancer II"
    PERFORMER "Klaus Schulze"
    INDEX 00 28:55:07
    INDEX 01 28:57:08
  TRACK 03 AUDIO
    TITLE "Moogetique"
    PERFORMER "Klaus Schulze"
    INDEX 00 43:09:12
    INDEX 01 43:11:12
  TRACK 04 AUDIO
    TITLE "Buddy laugh (a rock'n'roll bolero)"
    PERFORMER "Klaus Schulze"
    INDEX 00 56:21:56
    INDEX 01 56:26:58

4) Question: How I can set, for example, MB to ignore .flac file and instead of .flac file reads .cue file?

I hope I was clear with presentation of a problem. :D

Thanks!